96 (2018) Tamil - Ultra HD 4K - Untouched - AVC - Dolby ® 5.1 - Esubs-MTR





Format                      : MPEG-4
Codec ID                    : M4V  (isom/avc1/mp42)
File size                   : 5.91 GiB
Duration                    : 2 h 31 min
Overall bit rate mode       : Variable
Overall bit rate            : 5 583 kb/s
Encoded date                : UTC 2018-11-08 13:11:46
Tagged date                 : UTC 2018-11-08 13:11:46

Video
ID                          : 1
Format                      : AVC
Format/Info                 : Advanced Video Codec
Format profile              : Main@L5.1
Format settings, CABAC      : Yes
Format settings, RefFrames  : 3 frames
Format settings, GOP        : M=3, N=90
Codec ID                    : avc1
Codec ID/Info               : Advanced Video Coding
Duration                    : 2 h 31 min
Bit rate mode               : Constant
Bit rate                    : 5 000 kb/s
Maximum bit rate            : 13.1 Mb/s
Width                       : 3 840 pixels
Height                      : 2 160 pixels
Display aspect ratio        : 16:9
Frame rate mode             : Constant
Frame rate                  : 25.000 FPS
Standard                    : PAL
Color space                 : YUV
Chroma subsampling          : 4:2:0
Bit depth                   : 8 bits
Scan type                   : Progressive
Bits/(Pixel*Frame)          : 0.024
Stream size                 : 5.30 GiB (90%)
Encoded date                : UTC 2018-11-08 13:11:46
Tagged date                 : UTC 2018-11-08 13:11:46
Color range                 : Limited
Color primaries             : BT.709
Transfer characteristics    : BT.709
Matrix coefficients         : BT.709

Audio #1
ID                          : 2
Format                      : AAC
Format/Info                 : Advanced Audio Codec
Format profile              : LC
Codec ID                    : 40
Duration                    : 2 h 31 min
Bit rate mode               : Variable
Bit rate                    : 128 kb/s
Maximum bit rate            : 133 kb/s
Channel(s)                  : 2 channels
Channel positions           : Front: L R
Sampling rate               : 48.0 kHz
Frame rate                  : 46.875 FPS (1024 SPF)
Compression mode            : Lossy
Stream size                 : 136 MiB (2%)
Encoded date                : UTC 2018-11-08 13:11:46
Tagged date                 : UTC 2018-11-08 13:11:46

Audio #2
ID                          : 3
Format                      : AC-3
Format/Info                 : Audio Coding 3
Format settings, Endianness : Big
Codec ID                    : ac-3
Duration                    : 2 h 31 min
Bit rate mode               : Constant
Bit rate                    : 448 kb/s
Channel(s)                  : 6 channels
Channel positions           : Front: L C R, Side: L R, LFE
Sampling rate               : 48.0 kHz
Frame rate                  : 31.250 FPS (1536 SPF)
Bit depth                   : 16 bits
Compression mode            : Lossy
Stream size                 : 486 MiB (8%)
Service kind                : Complete Main
Encoded date                : UTC 2018-11-08 13:11:46
Tagged date                 : UTC 2018-11-08 13:11:46


96 (2018) Tamil - Ultra HD 4K - Untouched - AVC - Dolby ® 5.1 - Esubs-MTR96 (2018) Tamil - Ultra HD 4K - Untouched - AVC - Dolby ® 5.1 - Esubs-MTR96 (2018) Tamil - Ultra HD 4K - Untouched - AVC - Dolby ® 5.1 - Esubs-MTR96 (2018) Tamil - Ultra HD 4K - Untouched - AVC - Dolby ® 5.1 - Esubs-MTR96 (2018) Tamil - Ultra HD 4K - Untouched - AVC - Dolby ® 5.1 - Esubs-MTR96 (2018) Tamil - Ultra HD 4K - Untouched - AVC - Dolby ® 5.1 - Esubs-MTR96 (2018) Tamil - Ultra HD 4K - Untouched - AVC - Dolby ® 5.1 - Esubs-MTR96 (2018) Tamil - Ultra HD 4K - Untouched - AVC - Dolby ® 5.1 - Esubs-MTR
SINGLE DIRECT FAST LINKS

http://www.heroupload.us/a2516a4ef7aa1eac/96.2018.4K.Untouched.UHD.MP4.ESubs.Tamil-MTR.mp4


1GB LINKS

http://www.heroupload.us/d761eaafc231a25f/96.2018.4K.Untouched.UHD.MP4.ESubs.Tamil-MTR.part1.rar
http://www.heroupload.us/ea9bb814b3b03ab0/96.2018.4K.Untouched.UHD.MP4.ESubs.Tamil-MTR.part2.rar
http://www.heroupload.us/bdcb3380b260c056/96.2018.4K.Untouched.UHD.MP4.ESubs.Tamil-MTR.part3.rar
http://www.heroupload.us/fc09c96b2d71be04/96.2018.4K.Untouched.UHD.MP4.ESubs.Tamil-MTR.part4.rar
http://www.heroupload.us/75420adc4fb48d2a/96.2018.4K.Untouched.UHD.MP4.ESubs.Tamil-MTR.part5.rar
http://www.heroupload.us/cdb62d1768be8443/96.2018.4K.Untouched.UHD.MP4.ESubs.Tamil-MTR.part6.rar
http://www.heroupload.us/63d70f200eb6a1b5/96.2018.4K.Untouched.UHD.MP4.ESubs.Tamil-MTR.srt



http://filefloater.com/V8p/96.2018.4K.Untouched.UHD.MP4.ESubs.Tamil-MTR.part1.rar
http://filefloater.com/V8q/96.2018.4K.Untouched.UHD.MP4.ESubs.Tamil-MTR.part2.rar
http://filefloater.com/V8r/96.2018.4K.Untouched.UHD.MP4.ESubs.Tamil-MTR.part3.rar
http://filefloater.com/V8s/96.2018.4K.Untouched.UHD.MP4.ESubs.Tamil-MTR.part4.rar
http://filefloater.com/V8t/96.2018.4K.Untouched.UHD.MP4.ESubs.Tamil-MTR.part5.rar
http://filefloater.com/V8u/96.2018.4K.Untouched.UHD.MP4.ESubs.Tamil-MTR.part6.rar
http://filefloater.com/V8v/96.2018.4K.Untouched.UHD.MP4.ESubs.Tamil-MTR.srt


Buy Premium From My Links & Support Me
Dear visitor, you went to the site as unregistered user.
We recommend that you create or enter the site your name.

Add a comment

Name:*
E-Mail:
Bold Italic Underline Strike | Align left Center Align right | Insert smilies Insert link URLInsert protected URL Select color | Add Hidden Text Insert Quote Convert selected text from selection to Cyrillic (Russian) alphabet Insert spoiler
Enter the code: *
Include security image CAPCHA.
Refresh Code
 

|||||||

«    November 2018    »
MonTueWedThuFriSatSun
 1234
567891011
12131415161718
19202122232425
2627282930 

Mini Chat

{chat}

Popular searches