Gemini (2017) Malayalam - 1080p - WEB-HD - AVC - AAC-WR Exclusive






General
Format                      : MPEG-4
Format profile              : Base Media
Codec ID                    : isom (isom)
File size                   : 2.49 GiB
Duration                    : 2 h 12 min
Overall bit rate mode       : Variable
Overall bit rate            : 2 701 kb/s
Encoded date                : UTC 2017-07-26 08:18:00
Tagged date                 : UTC 2017-07-26 08:18:00
Writing application         : MkvToMp4 [www.mkvtomp4.ru] version 0.224 (x64)

Video
ID                          : 1
Format                      : AVC
Format/Info                 : Advanced Video Codec
Format profile              : High@L4.1
Format settings, CABAC      : Yes
Format settings, ReFrames   : 4 frames
Format settings, GOP        : M=4, N=50
Codec ID                    : avc1
Codec ID/Info               : Advanced Video Coding
Duration                    : 2 h 12 min
Bit rate                    : 2 566 kb/s
Nominal bit rate            : 3 500 kb/s
Maximum bit rate            : 4 702 kb/s
Width                       : 1 920 pixels
Height                      : 1 080 pixels
Display aspect ratio        : 16:9
Frame rate mode             : Constant
Frame rate                  : 25.000 FPS
Color space                 : YUV
Chroma subsampling          : 4:2:0
Bit depth                   : 8 bits
Scan type                   : Progressive
Bits/(Pixel*Frame)          : 0.049
Stream size                 : 2.37 GiB (95%)
Writing library             : x264 core 148 r2694 3b70645
Encoding settings           : cabac=1 / ref=3 / deblock=1:0:0 / analyse=0x3:0x113 / me=hex / subme=7 / psy=1 / psy_rd=1.00:0.00 / mixed_ref=1 / me_range=16 / chroma_me=1 / trellis=1 / 8x8dct=1 / cqm=0 / deadzone=21,11 / fast_pskip=1 / chroma_qp_offset=-2 / threads=34 / lookahead_threads=5 / sliced_threads=0 / nr=0 / decimate=1 / interlaced=0 / bluray_compat=0 / constrained_intra=0 / bframes=3 / b_pyramid=2 / b_adapt=1 / b_bias=0 / direct=1 / weightb=1 / open_gop=0 / weightp=2 / keyint=50 / keyint_min=26 / scenecut=0 / intra_refresh=0 / rc_lookahead=40 / rc=cbr / mbtree=1 / bitrate=3500 / ratetol=1.0 / qcomp=0.60 / qpmin=0 / qpmax=69 / qpstep=4 / vbv_maxrate=3500 / vbv_bufsize=3500 / nal_hrd=none / filler=0 / ip_ratio=1.40 / aq=1:1.00
Language                    : English
Tagged date                 : UTC 2017-07-26 08:18:06

Audio
ID                          : 2
Format                      : AAC
Format/Info                 : Advanced Audio Codec
Format profile              : LC
Codec ID                    : 40
Duration                    : 2 h 12 min
Bit rate mode               : Variable
Bit rate                    : 132 kb/s
Maximum bit rate            : 162 kb/s
Channel(s)                  : 2 channels
Channel positions           : Front: L R
Sampling rate               : 48.0 kHz
Frame rate                  : 46.875 FPS (1024 spf)
Compression mode            : Lossy
Stream size                 : 124 MiB (5%)
Language                    : English
Default                     : Yes
Alternate group             : 1
Encoded date                : UTC 2017-07-26 08:18:04
Tagged date                 : UTC 2017-07-26 08:18:06



Gemini (2017) Malayalam - 1080p - WEB-HD - AVC - AAC-WR ExclusiveGemini (2017) Malayalam - 1080p - WEB-HD - AVC - AAC-WR ExclusiveGemini (2017) Malayalam - 1080p - WEB-HD - AVC - AAC-WR Exclusive


[B]SINGLE DIRECT FAST LINKS[/B]

http://www.heroupload.com/a2aeb1f40c324a17/Gemini.2017.Malayalam.1080p.WEB-HD.AVC.AAC-WarezRock.mp4


[B]700MB LINKS[/B]


http://www.heroupload.com/977eca51687c98d3/Gemini.2017.Malayalam.1080p.WEB-HD.AVC.AAC-WarezRock.part1.rar
http://www.heroupload.com/fc59104b79dc1461/Gemini.2017.Malayalam.1080p.WEB-HD.AVC.AAC-WarezRock.part2.rar
http://www.heroupload.com/3e6d6c27dd38f09a/Gemini.2017.Malayalam.1080p.WEB-HD.AVC.AAC-WarezRock.part3.rar
http://www.heroupload.com/63e68f0381dd2699/Gemini.2017.Malayalam.1080p.WEB-HD.AVC.AAC-WarezRock.part4.rar

Dear visitor, you went to the site as unregistered user.
We recommend that you create or enter the site your name.

Add a comment

Name:*
E-Mail:
Bold Italic Underline Strike | Align left Center Align right | Insert smilies Insert link URLInsert protected URL Select color | Add Hidden Text Insert Quote Convert selected text from selection to Cyrillic (Russian) alphabet Insert spoiler
Enter the code: *
Include security image CAPCHA.
Refresh Code
 

|||||||

«    November 2018    »
MonTueWedThuFriSatSun
 1234
567891011
12131415161718
19202122232425
2627282930 

Mini Chat

{chat}

Popular searches