Gemini (2017) Malayalam - 720p - WEB-HD - AVC - AAC-WR Exclusive





General
Format                      : MPEG-4
Format profile              : Base Media
Codec ID                    : isom (isom)
File size                   : 1.91 GiB
Duration                    : 2 h 12 min
Overall bit rate mode       : Variable
Overall bit rate            : 2 072 kb/s
Encoded date                : UTC 2017-07-26 08:17:14
Tagged date                 : UTC 2017-07-26 08:17:14
Writing application         : MkvToMp4 [www.mkvtomp4.ru] version 0.224 (x64)

Video
ID                          : 1
Format                      : AVC
Format/Info                 : Advanced Video Codec
Format profile              : Main@L3.1
Format settings, CABAC      : Yes
Format settings, ReFrames   : 4 frames
Format settings, GOP        : M=4, N=50
Codec ID                    : avc1
Codec ID/Info               : Advanced Video Coding
Duration                    : 2 h 12 min
Bit rate                    : 1 936 kb/s
Nominal bit rate            : 2 500 kb/s
Maximum bit rate            : 3 732 kb/s
Width                       : 1 280 pixels
Height                      : 720 pixels
Display aspect ratio        : 16:9
Frame rate mode             : Constant
Frame rate                  : 25.000 FPS
Color space                 : YUV
Chroma subsampling          : 4:2:0
Bit depth                   : 8 bits
Scan type                   : Progressive
Bits/(Pixel*Frame)          : 0.084
Stream size                 : 1.79 GiB (93%)
Writing library             : x264 core 148 r2694 3b70645
Encoding settings           : cabac=1 / ref=3 / deblock=1:0:0 / analyse=0x1:0x111 / me=hex / subme=7 / psy=1 / psy_rd=1.00:0.00 / mixed_ref=1 / me_range=16 / chroma_me=1 / trellis=1 / 8x8dct=0 / cqm=0 / deadzone=21,11 / fast_pskip=1 / chroma_qp_offset=-2 / threads=22 / lookahead_threads=3 / sliced_threads=0 / nr=0 / decimate=1 / interlaced=0 / bluray_compat=0 / constrained_intra=0 / bframes=3 / b_pyramid=2 / b_adapt=1 / b_bias=0 / direct=1 / weightb=1 / open_gop=0 / weightp=2 / keyint=50 / keyint_min=26 / scenecut=0 / intra_refresh=0 / rc_lookahead=40 / rc=cbr / mbtree=1 / bitrate=2500 / ratetol=1.0 / qcomp=0.60 / qpmin=0 / qpmax=69 / qpstep=4 / vbv_maxrate=2500 / vbv_bufsize=2500 / nal_hrd=none / filler=0 / ip_ratio=1.40 / aq=1:1.00
Language                    : English
Tagged date                 : UTC 2017-07-26 08:17:20

Audio
ID                          : 2
Format                      : AAC
Format/Info                 : Advanced Audio Codec
Format profile              : LC
Codec ID                    : 40
Duration                    : 2 h 12 min
Bit rate mode               : Variable
Bit rate                    : 132 kb/s
Maximum bit rate            : 185 kb/s
Channel(s)                  : 2 channels
Channel positions           : Front: L R
Sampling rate               : 44.1 kHz
Frame rate                  : 43.066 FPS (1024 spf)
Compression mode            : Lossy
Stream size                 : 124 MiB (6%)
Language                    : English
Default                     : Yes
Alternate group             : 1
Encoded date                : UTC 2017-07-26 08:17:18
Tagged date                 : UTC 2017-07-26 08:17:20



Gemini (2017) Malayalam - 720p - WEB-HD - AVC - AAC-WR ExclusiveGemini (2017) Malayalam - 720p - WEB-HD - AVC - AAC-WR ExclusiveGemini (2017) Malayalam - 720p - WEB-HD - AVC - AAC-WR ExclusiveGemini (2017) Malayalam - 720p - WEB-HD - AVC - AAC-WR Exclusive


[B]SINGLE DIRECT FAST LINKS[/B]


http://www.heroupload.com/01ce0151b267399a/Gemini.2017.Malayalam.720p.WEB-HD.AVC.AAC-WarezRock.mp4


Dear visitor, you went to the site as unregistered user.
We recommend that you create or enter the site your name.

Add a comment

Name:*
E-Mail:
Bold Italic Underline Strike | Align left Center Align right | Insert smilies Insert link URLInsert protected URL Select color | Add Hidden Text Insert Quote Convert selected text from selection to Cyrillic (Russian) alphabet Insert spoiler
Enter the code: *
Include security image CAPCHA.
Refresh Code
 

|||||||

«    November 2018    »
MonTueWedThuFriSatSun
 1234
567891011
12131415161718
19202122232425
2627282930 

Mini Chat

{chat}

Popular searches