Ee. Ma. Yau (2018) Malayalam - 720p - DVDRip - x264 - DD5.1 - ESubs-TMV





Format                      : Matroska
Format version              : Version 4 / Version 2
File size                   : 1.44 GiB
Duration                    : 1 h 59 min
Overall bit rate            : 1 720 kb/s
Encoded date                : UTC 2018-09-27 11:27:42
Writing application         : mkvmerge v7.1.0 ('Good Love') 32bit built on Jul 27 2014 12:59:18
Writing library             : libebml v1.3.0 + libmatroska v1.4.1

Video
ID                          : 1
Format                      : AVC
Format/Info                 : Advanced Video Codec
Format profile              : High@L4.1
Format settings, CABAC      : Yes
Format settings, RefFrames  : 5 frames
Codec ID                    : V_MPEG4/ISO/AVC
Duration                    : 1 h 59 min
Bit rate                    : 1 526 kb/s
Width                       : 1 280 pixels
Height                      : 540 pixels
Display aspect ratio        : 2.35:1
Frame rate mode             : Constant
Frame rate                  : 23.976 (24000/1001) FPS
Color space                 : YUV
Chroma subsampling          : 4:2:0
Bit depth                   : 8 bits
Scan type                   : Progressive
Bits/(Pixel*Frame)          : 0.092
Stream size                 : 1.27 GiB (89%)
Writing library             : x264 core 155 r2901 7d0ff22
Encoding settings           : cabac=1 / ref=5 / deblock=1:0:0 / analyse=0x3:0x113 / me=hex / subme=8 / psy=1 / psy_rd=1.00:0.00 / mixed_ref=1 / me_range=16 / chroma_me=1 / trellis=2 / 8x8dct=1 / cqm=0 / deadzone=21,11 / fast_pskip=1 / chroma_qp_offset=-2 / threads=17 / lookahead_threads=2 / sliced_threads=0 / nr=0 / decimate=1 / interlaced=0 / bluray_compat=0 / constrained_intra=0 / bframes=3 / b_pyramid=2 / b_adapt=1 / b_bias=0 / direct=3 / weightb=1 / open_gop=0 / weightp=2 / keyint=240 / keyint_min=24 / scenecut=40 / intra_refresh=0 / rc_lookahead=50 / rc=2pass / mbtree=1 / bitrate=1526 / ratetol=1.0 / qcomp=0.60 / qpmin=0 / qpmax=69 / qpstep=4 / cplxblur=20.0 / qblur=0.5 / vbv_maxrate=62500 / vbv_bufsize=78125 / nal_hrd=none / filler=0 / ip_ratio=1.40 / aq=1:1.00
Language                    : Malayalam
Default                     : Yes
Forced                      : No
Color range                 : Limited
Color primaries             : BT.601 NTSC
Transfer characteristics    : BT.709
Matrix coefficients         : BT.601

Audio
ID                          : 2
Format                      : AC-3
Format/Info                 : Audio Coding 3
Format settings, Endianness : Big
Codec ID                    : A_AC3
Duration                    : 1 h 59 min
Bit rate mode               : Constant
Bit rate                    : 192 kb/s
Channel(s)                  : 2 channels
Channel positions           : Front: L R
Sampling rate               : 48.0 kHz
Frame rate                  : 31.250 FPS (1536 SPF)
Bit depth                   : 16 bits
Compression mode            : Lossy
Delay relative to video     : -10 ms
Stream size                 : 164 MiB (11%)
Language                    : Malayalam
Service kind                : Complete Main
Default                     : Yes
Forced                      : No

Text
ID                          : 3
Format                      : ASS
Codec ID                    : S_TEXT/ASS
Codec ID/Info               : Advanced Sub Station Alpha
Duration                    : 1 h 43 min
Bit rate                    : 110 b/s
Count of elements           : 1619
Compression mode            : Lossless
Stream size                 : 83.7 KiB (0%)
Language                    : English
Default                     : Yes
Forced                      : Yes


Ee. Ma. Yau (2018) Malayalam - 720p - DVDRip - x264 - DD5.1 - ESubs-TMVEe. Ma. Yau (2018) Malayalam - 720p - DVDRip - x264 - DD5.1 - ESubs-TMVEe. Ma. Yau (2018) Malayalam - 720p - DVDRip - x264 - DD5.1 - ESubs-TMVEe. Ma. Yau (2018) Malayalam - 720p - DVDRip - x264 - DD5.1 - ESubs-TMVEe. Ma. Yau (2018) Malayalam - 720p - DVDRip - x264 - DD5.1 - ESubs-TMV


SINGLE DIRECT FAST LINKS
http://www.heroupload.us/3de57082562b32de/Ee..Ma..Yau.2018.Malayalam.Org.DVDRip.720p.x264.5.1.ESub-TMV.mkv



http://filefloater.com/1KS5/Ee..Ma..Yau.2018.Malayalam.Org.DVDRip.720p.x264.5.1.ESub-TMV.mkv


Buy Premium From My Links & Support Me
Dear visitor, you went to the site as unregistered user.
We recommend that you create or enter the site your name.

Add a comment

Name:*
E-Mail:
Bold Italic Underline Strike | Align left Center Align right | Insert smilies Insert link URLInsert protected URL Select color | Add Hidden Text Insert Quote Convert selected text from selection to Cyrillic (Russian) alphabet Insert spoiler
Enter the code: *
Include security image CAPCHA.
Refresh Code
 

|||||||

«    October 2018    »
MonTueWedThuFriSatSun
1234567
891011121314
15161718192021
22232425262728
293031 

Mini Chat

{chat}

Popular searches